Sale!

Bushra Azhar – 7 Day 7K 2018

$1,188.00 $85.00

Bushra Azhar – 7 Day 7K 2018

Product Delivery : You will receive a receipt with download link through email.
Contact me for the proof and payment detail: [email protected]

Description

Bushra Azhar – 7 Day 7K 2018

Archive : Bushra Azhar – 7 Day 7K 2018

7 Days to 7K
Steal My Replicable & Battle-tested System to Make Your First $7K in 7 Days

Class Curriculum

Module One: Expertise Into Enterprise: How to unearth & validate Your rejection proof offer
Start Module One – Watch me

Module Two: 15 rejection Proof offer structures & how to craft your own rock solid rejection proof o
Start Module Two – Watch me

Module Three: Exact roadmap to craft the perception of a subject matter expert in as little as 2 weeks
Start Module Three – Watch me

Module Four: The Outreach Method (including scripts) to get your first 3 clients without spending a single penny
Start Module Four – Watch me

Module Five: The LLC Method & The Nifty 50: Day by Day breakdown (plus scripts & templates) to make $7K and beyond
Start Module Five – Watch me

Bonuses
Start Killer Sales Call Structure
Start Lucrative livestreaming
Start Tantalising testimonials
Start Book2Bank Masterclass
Start Persuasive Blogging Masterclass

Downloads
Start All worksheets, slides and downloads

Video
ID : 1
Format : AVC
Format/Info : Advanced Video Codec
Format profile : [email protected]
Format settings : 1 Ref Frames
Format settings, CABAC : No
Format settings, RefFrames : 1 frame
Format settings, GOP : M=1, N=12
Codec ID : avc1
Codec ID/Info : Advanced Video Coding
Duration : 16 min 26 s
Bit rate : 681 kb/s
Width : 1 280 pixels
Height : 720 pixels
Display aspect ratio : 16:9
Frame rate mode : Constant
Frame rate : 25.000 FPS
Color space : YUV
Chroma subsampling : 4:2:0
Bit depth : 8 bits
Scan type : Progressive
Bits/(Pixel*Frame) : 0.030
Stream size : 80.1 MiB (87%)
Encoded date : UTC 2018-08-04 20:03:37
Tagged date : UTC 2018-08-04 20:03:37
Menus : 3

Audio
ID : 2
Format : AAC
Format/Info : Advanced Audio Codec
Format profile : LC
Codec ID : mp4a-40-2
Duration : 16 min 26 s
Bit rate mode : Variable
Bit rate : 96.0 kb/s
Maximum bit rate : 113 kb/s
Channel(s) : 2 channels
Channel positions : Front: L R
Sampling rate : 44.1 kHz
Frame rate : 43.066 FPS (1024 SPF)
Compression mode : Lossy
Stream size : 11.1 MiB (12%)
Encoded date : UTC 2018-08-04 20:03:37
Tagged date : UTC 2018-08-04 20:03:37

Get Bushra Azhar – 7 Day 7K 2018 right now!

Bushra Azhar – 7 Day 7K 2018 Download, 7 Day 7K 2018 Download, 7 Day 7K 2018 Groupbuy, 7 Day 7K 2018 Free,7 Day 7K 2018 Torrent, 7 Day 7K 2018 Course Download, Bushra Azhar – 7 Day 7K 2018 Review, 7 Day 7K 2018 Review

Cart Item Removed. Undo
  • No products in the cart.
HAPPY JUN !
15% DISCOUNT
15happy
x