Sale!

Haim Sabbah – Ecom Dropouts

$1,497.00 $100.00

Haim Sabbah – Ecom Dropouts

Product Delivery:You will receive a receipt with download link through email.

Contact me for the proof and payment detail: [email protected]

 

Description

Haim Sabbah – Ecom Dropouts

Module A:
Creating A High Converting Store
Initial Store Setup + Creating Pages (48 Min.)
Setting Up Your Header and Footer (8 Min.)
Adding Your First Product Properly (28 Min.)
3 Apps To Increase Conversions on Product Pages (35 Min.)
Final Touches on Product Page (10 Min.)
Easy Way To Increase Cart Value on Product Page (4 Min.)
Exactly What My New Store Looks Like Now (13 Min.)

Module B:
How To Find Winning Products
Finding Winning Products on Facebook (43 Min.)
Finding Winning Products By Spying On Stores (27 Min.)
Finding Winning Products on ******* (15 Min.)
Finding Winning Products on ****** (24 Min.)
Finding Winning Products on **** (14 Min.)
Finding Winning Products on ********** (32 Min.)
Finding Winning Products on **** & **** (31 Min.)
My $1M Winning Product Guidelines (28 Min.)

Module C:
Facebook Ads For Dropouts
Getting Familiar With Ads Manager (41 Min.)
The Facebook Pixel (25 Min)
Facebook Ads Targeting (34 Min)
Facebook Ads Targeting/Testing (40 Min)
Facebook Ads Targeting/Testing/Optimizing (39 Min)
Scaling FB Ads (Part A) (47 Min)
Scaling FB Ads (Part B) (64 Min)
Intro to Custom Audiences (30 Min)
Facebook Ads Remarketing (30 Min)
Reading Breakdowns For Optimization (34 Min)

Bonus A:
Customer Service For Dropouts
Addressing Shipping Delays (21 Min.)
Addressing Returns/Refunds (23 Min.)
Addressing Lower Prices on ******/**** (14 Min.)
Setting Up A Toll Free Number (10 Min.)

Bonus B:
Moving Away From AliExpress
Using Excel Sheets With Suppliers (14 Min.)
Using an App To Upload Tracking (10 Min.)
Finding Dropshippers on ******/****
Using a Fulfillment Center

Bonus C:
Free + Shipping on ClickFunnels
What Is A Free + Shipping Funnel
My $500 000 Free + Shipping Funnel
Customer Service for a Free + Shipping Offer
Growing Shopify Using a Free + Shipping Funnel

Video
ID                                       : 1
Format                                   : AVC
Format/Info                              : Advanced Video Codec
Format profile                           : [email protected]
Format settings                          : CABAC / 5 Ref Frames
Format settings, CABAC                   : Yes
Format settings, RefFrames               : 5 frames
Codec ID                                 : avc1
Codec ID/Info                            : Advanced Video Coding
Duration                                 : 28 min 23 s
Bit rate                                 : 656 kb/s
Width                                    : 1 280 pixels
Height                                   : 720 pixels
Display aspect ratio                     : 16:9
Frame rate mode                          : Constant
Frame rate                               : 30.000 FPS
Color space                              : YUV
Chroma subsampling                       : 4:2:0
Bit depth                                : 8 bits
Scan type                                : Progressive
Bits/(Pixel*Frame)                       : 0.024
Stream size                              : 133 MiB (73%)
Writing library                          : x264 core 155 r10 b00bcaf
Color range                              : Limited
Color primaries                          : BT.709
Transfer characteristics                 : BT.709
Matrix coefficients                      : BT.709
Menus                                    : 3
Codec configuration box                  : avcC

Audio
ID                                       : 2
Format                                   : AAC LC
Format/Info                              : Advanced Audio Codec Low Complexity
Codec ID                                 : mp4a-40-2
Duration                                 : 28 min 23 s
Bit rate mode                            : Variable
Bit rate                                 : 234 kb/s
Channel(s)                               : 2 channels
Channel layout                           : L R
Sampling rate                            : 48.0 kHz
Frame rate                               : 46.875 FPS (1024 SPF)
Compression mode                         : Lossy
Stream size                              : 47.8 MiB (26%)
Encoded date                             : UTC 2018-02-13 01:15:03
Tagged date                              : UTC 2018-02-13 01:15:03

Get Haim Sabbah – Ecom Dropouts  right now!

Haim Sabbah – Ecom Dropouts Download, Ecom Dropouts Download, Ecom Dropouts Groupbuy, Ecom Dropouts Free, Ecom Dropouts Torrent, Ecom Dropouts Course Download, Haim Sabbah – Ecom Dropouts Review, Ecom Dropouts Review

Cart Item Removed. Undo
  • No products in the cart.
Flash Sale !
30% DISCOUNT
30wsocourse
x